2024 Pantera fucking hostile - You can buy my albums or singles here:DIRECT FROM ME (LOSSLESS) http://bit.ly/2usJ3lqITUNES http://apple.co/1Lni4PRAMAZON http://amzn.to/1U2rqUaGOOGLE ...

 
Pantera Tabs with free online tab player. One accurate tab per song. Huge selection of 800,000 tabs. ... Fucking Hostile. Pantera. Primal Concrete Sledge. Pantera .... Pantera fucking hostile

Nos estás construyendo. Maldito hostil. Permanecemos solos. Maldito, maldito, maldito... Maldito Hostil!! Pablo Acevedo. Pablo Acevedo. Letra traducida de Pantera - Fucking …Nov 16, 2018 · You can buy my albums or singles here:DIRECT FROM ME (LOSSLESS) http://bit.ly/2usJ3lqITUNES http://apple.co/1Lni4PRAMAZON http://amzn.to/1U2rqUaGOOGLE ... Pantera Lyrics. "Fucking Hostile". One, two, three, four. Almost every day, I see the same face. On broken picture tube, it fits the attitude. If you could see yourself, you put you on …22. "It Makes Them Disappear". Reinventing the Steel. In much the same way that Black Sabbath had moments of extreme heaviness that exceeded the group's typical, everyday heaviness ("Under the Sun," "Cornucopia"), Pantera has "It Makes Them Disappear" — arguably the most pulverizing tune in the band's catalog.You seem to wonder why Hundreds of people die You're writing tickets man My mom got jumped -- they ran! Now I'll play a public servant To serve and protect By the law and the state I'd bust the punks That rape steal and murder And leave you be If you crossed me I'd shake your hand like a man Not a god To see To bleed Cannot be taught In turn ... ... Pantera songs", they placed "This Love" in seventh, "Mouth for War" in fifth, "Fucking Hostile" in third and "Walk" in first. IGN named Vulgar Display ...Jul 29, 2022 · Til' the next time we see you, we love you, then you get high and you drop acid and then you get laid and all that good shit." - intro to "I'm Broken". "It's OK to curse. You can curse if you want to. You paid good money to curse out loud." "All right, I know what you wanna hear — everybody take a deep breath. Download or listen ♫ Fucking Hostile by Pantera ♫ online from Mdundo.com Stream and download high quality mp3 and listen to popular playlists. Listen to thousands of Bongo, Gospel, DJ Mixes, Dancehall & Hip Hop for Free.. ... Fucking Hostile (Live From Donington) 2:57.. Dom / Hollow [Live Version] 3:44.. This Love (Live From Donington) 7:16..Official live video of Pantera performing "Domination". Original song from 'Cowboys from Hell' (1990)📼 Watch all of Pantera’s official videos here http://bi...Jul 10, 2019 · VIN AND SORI GEARwww.teespring.com/stores/the-village-market PAYPAL [email protected] https://www.patreon.com/VinandsoriMAIL US SOMETHING ATVi... Jun 5, 2011 · I DO NOT OWN SONG OR PICTURESong: Fucking HostileArtist: PanteraAlbum: Vulgar Display of PowerYear: 1992LYRICSOne two three fourAlmost every dayI see the sam... PanterA/ Dimebag Darrell Fucking Hostile Live at monsters of rock - festivale in Donington, England 1994Can't you see I'm easily I'm bothered by persistence One step from lashing out at you You wanted to get under my skin And call yourself friend I've got more friends like you2-01. Pantera - Mouth For War (03:56) 2-02. Pantera - A New Level (03:57) 2-03. Pantera - Walk (05:15) 2-04. Pantera - Fucking Hostile (02:48) 2-05. Pantera - This Love (06:32) 2-06. Pantera - Rise (04:38) 2-07. Pantera - No Good (Attack The Radical) [Explicit] (04:48) 2-08. Pantera - Live In A Hole (05:00) 2-09. Pantera - Regular People ...Fucking Hostile (Biomechanical Mix) Lyrics. 1,2,3,4. We stand alone. We stand alone. Almost every day. I see the same face. On broken picture tube. It fits the attitude. Oooh …Now I'll play a public servant To serve and protect by the law and the state I'd bust the punks that rape, steal and murder And leave you be if you crossed me, I'd shake your hand like a man Not a god To see To bleed Cannot be taught In turn, you're making us Fucking hostile! We stand alone Vince! Listen to Fucking Hostile on Spotify. Pantera · Song · 1992. ... Pantera · Song · 1992. Listen to Fucking Hostile on Spotify. Pantera · Song · 1992. Sign up Log in. Home; Search; Your Library. Create your first playlist It's easy, we'll help you. Create playlist.What's left inside him? Don't he remember us? Can't he believe me? We seemed like brothers Talked for hours last month About what we wanna be I sit now with his hand in minePantera - Fucking Hostile (100mm x 75mm) Sew-On Patch. $9.99. Select Title. Default Title. Default Title. Add Quantity:.Fucking Hostile (Pantera cover) Play Video; Walk (Pantera cover) Play Video (Reprise) Sandblasted Skin (Pantera cover) (with snippet of Shout at the Devil; ...Fucking Hostile is a song by Pantera, released on 1992-02-21. It is track number 4 in the album Vulgar Display of Power. Fucking Hostile has a BPM/tempo of 94 beats per minute, is in the key of F# min and has a duration of 2 minutes, 48 seconds. Fucking Hostile is fairly popular on Spotify, being rated between 10-65% popularity on Spotify right ...Fucking Hostile Tab by Pantera. Free online tab player. One accurate version. Recommended by The Wall Street JournalAbout Press Copyright Contact us Creators Advertise Developers Press Copyright Contact us Creators Advertise DevelopersStream Fucking Hostile (Pantera) by BornIntoExile on desktop and mobile. Play over 320 million tracks for free on SoundCloud. SoundCloud Fucking Hostile (Pantera) by BornIntoExile published on 2013-06-25T15:27:25Z. Genre Thrash Metal Comment by Marianna. kkkkkk. 2023-07-24T23:15:29Z Comment by gino-salas-1. we're is Slayer they …Current track: Pantera - Fucking Hostile [Kemal & Rob Data Remix] Pantera - Fucking Hostile [Kemal & Rob Data Remix] Like Follow. Cookie Manager. SoundCloud may request cookies to be set on your device. We use cookies to let us know when you visit SoundCloud, to understand how you interact with us, to enrich and personalize your …Feb 27, 1992 · So what—to use one of the new album’s song titles—makes Anselmo so “Fucking Hostile”? “There’s a lot of things that make him angry,” explains Paul, “but he’s not necessarily writing anger in a negative fashion. He’s angry and he’s expressing a viewpoint, but it’s also an anger that turns positive, you know what I’m ... Use this setlist for your event review and get all updates automatically! Get the Philip H. Anselmo & The Illegals Setlist of the concert at Petrovaradin, Novi Sad, Serbia on July 5, 2019 from the Choosing Mental Illness 2019 Euro Tour and other Philip H. Anselmo & The Illegals Setlists for free on setlist.fm!Dec 29, 2014 · Artist: PanteraSong: Fucking HostileAlbum: Vulgar Display of PowerI don't own the content of this video. No copyright infringement is intended. I'm just a fa... Artist: PanteraSong: Fucking HostileAlbum: Vulgar Display of PowerI don't own the content of this video. No copyright infringement is intended. I'm just a fa...5 Dec 2022 ... In fucking hostile, I swear Phil said “bitch!” Instead of “Vince!” Right before the guitar solo, learned that one only a couple months ago ...2 days ago · Fucking Hostile 10. Planet Caravan (BLACK SABBATH cover) 11. Walk 12. Domination / Hollow 13. Cowboys From Hell. Encore: 14. Slaughtered 15. Revolution Is My Name. The reformed PANTERA kicked off ... 17 Jul 2008 ... ... Dimebag Darrell The good old times.... PANTERA live PHIL AND DIME singin Fucking Hostile 1995. 21K views · 15 years ago ...more. LaserGadgets.Fucking Hostile 11. Planet Caravan (BLACK SABBATH cover) 12. Walk 13. Domination / Hollow 14. Cowboys From Hell. PANTERA's surviving members Philip Anselmo (vocals) and Rex Brown (bass) ...Feb 18, 2014 · Fucking Hostile Guitar Pro by Pantera. 70,922 views, added to favorites 1,466 times. Tuning: E A D G B E: Capo: ... Get access to Pro version of "Fucking Hostile"! View credits, reviews, tracks and shop for the 1993 CD release of "Fucking Hostile Cowboys From Hell" on Discogs.Facebook: http://www.facebook.com/Pantera Band: Pantera Album: Vulgar Display Of Power (Remastered) [20th Anniversary Deluxe Edition] (2012) Genre: …22. "It Makes Them Disappear". Reinventing the Steel. In much the same way that Black Sabbath had moments of extreme heaviness that exceeded the group's typical, everyday heaviness ("Under the Sun," "Cornucopia"), Pantera has "It Makes Them Disappear" — arguably the most pulverizing tune in the band's catalog.Explore the tracklist, credits, statistics, and more for Fucking Hostile by Pantera. Compare versions and buy on DiscogsFucking Hostile. 2:49; Pantera - Vulgar Display of Power Cassette 1992! #metal #rock #music #pantera #cassette #shorts. 0:33; Lists Add to List. Add to List. Ad. Contributors. petrovichhh, ROCKTER. Report Suspicious Activity. Ad. Ad.Facebook: http://www.facebook.com/Pantera Band: Pantera Album: Vulgar Display Of Power (Remastered) [20th Anniversary Deluxe Edition] (2012) Genre: …Watch the video for Fucking Hostile from Pantera's Vulgar Display of Power for free, and see the artwork, lyrics and similar artists.Fucking Hostile drums play-through!Download my drum tracks and audio cheat sheets: https://www.patreon.com/66samusLive Streams Tuesdays 7PM EST: https://www....The most common reasons for suing an employer are for discrimination, harassment or creating a hostile work environment. In each case, it is necessary to present strong evidence that the employer did not meet basic expectations of superviso...Pantera - Fucking Hostile quantity. Add to cart. Add to Wishlist. Comparar. Categories: Patches, Silkscreen Tag: Heavy. Description Reviews (0) Description High Quality Silkscreen Print Size 10cm on the biggest side. Reviews There are no reviews yet.Facebook: http://www.facebook.com/Pantera Band: Pantera Album: Vulgar Display Of Power (Remastered) [20th Anniversary Deluxe Edition] (2012) Genre: …14 Apr 2016 ... Wynn on Instagram: "Fucking hostile #hostile #fuckinghostile #pantera #beard #friday #beards #bearded #beardgang #beardlife #beardedmen ...Fucking Hostile. 2:49; Pantera - Vulgar Display of Power Cassette 1992! #metal #rock #music #pantera #cassette #shorts. 0:33; Lists Add to List. Add to List. Ad. Contributors. petrovichhh, ROCKTER. Report Suspicious Activity. Ad. Ad.A fucking wives' tale. They put it in your head. Then put you in your bed. He's watching say your prayers. 'Cause God is everywhere. Now I'll play a man learning priesthood. Who's about to take the ultimate test in life. I question things because I am human. And call no one my father who's no closer that a stranger. FILE "Pantera - Vulgar Display Of Power (7567-91758-2).flac" WAVE TRACK 01 AUDIO TITLE "Mouth For War" PERFORMER "Pantera" INDEX 01 00:00:00 TRACK 02 AUDIO TITLE "A New Level" PERFORMER "Pantera" INDEX 01 03:57:17 TRACK 03 AUDIO TITLE "Walk" PERFORMER "Pantera" INDEX 01 07:54:52 TRACK 04 AUDIO TITLE "Fucking …Fucking hostile Come meet your maker, boy Some things you can't enjoy Because of heaven/hell A fucking wives' tale They put it in your head Then put you in your bed He's watching say your prayers Cause God is everywhere Now I'll play a man learning priesthood Who's about to take the ultimate test in life I'd question things because I am humanProduto FANLAB Camiseta Pantera - Fucking Hostile II - Preta. Confira a oferta e compre online!Band [Pantera Is:], Bass – Rex* Band [Pantera Is:], Drums – Vinnie Paul; Band [Pantera Is:], Guitar [Guitars] – Diamond Darrell; ... Fucking Hostile. 2:49; Pantera - Regular People (Conceit) 5:30; Pantera - By Demons Be Driven. 4:45; Pantera - Mouth For War. 4:00; Pantera - No Good (Attack The Radical) 4:55;Pantera at State Farm Stadium, Glendale, AZ, USA. Artist: Pantera , Tour: North American Tour 2023 , Venue: State Farm Stadium , Glendale, AZ, USA. Set Times: Doors: 4:00 PM Show: 6:50 PM – 7:50 PM. Regular People (Conceit) In Heaven (Lady in the Radiator Song) A New Level. Mouth for War.1 Nov 2013 ... ... fuck that is that made all the pauses super audible and hissy, but whatever! fun stuff! Pantera - Fucking Hostile vocal cover. 19K views ...Fucking hostile We stand alone The truth in right and wrong The boundaries of the law You seem to miss the point Arresting for a joint? You seem to wonder why Hundreds of …Let's review the charts and indicators....JBLU Employees of TheStreet are prohibited from trading individual securities. Let's look at what separates great trading from bad. These regional banks offer above-average yields and reliable d...Live in Buenos Aires, ArgentinaDec 2, 2022 · About Press Copyright Contact us Creators Advertise Developers Terms Privacy Policy & Safety How YouTube works Test new features NFL Sunday Ticket Press Copyright ... 14 Apr 2020 ... Q: how ya feeling today? A: Fucking Hostile - Pantera for your asses Tuning: Original song is 1/4 step below Eb but this backing track is ...Discover Pantera's top songs & albums, curated artist radio stations & more. Listen to Pantera on Pandora today! ... Fucking Hostile. e. explicit. Pantera From the album Vulgar Display of Power. Create Station. Start Station. Play Song. Play Song. Share. Share. Lyrics. See All Lyrics Lyrics. One, two, three, four! Almost every day.05. 05-pantera-fucking_hostile-dnr (03:56) 06. 06-pantera-this_love-dnr (06:16) 07. 07-pantera-rise-dnr (04:52) 08. 08-pantera-by_demons_be_driven-dnr (04:16) 09. 09-pantera-hollow-dnr (02:55) 10. 10-pantera-cowboys_from_hell-dnr (04:18) 11. 11-pantera-primal_concrete_sledge-dnr (03:16)Pantera - Fucking Hostile (EN ESPAÑOL) (Letra y canción para escuchar) - Almost every day / I see the same face / On broken picture tube / It fits the attitude / If you could see …ARTIST. Pantera. ALBUM. Fucking Hostile. LICENSES. WMG (on behalf of Atlantic 0191); BMI - Broadcast Music Inc., LatinAutorPerf, LatinAutor - Warner Chappell, CMRRA, PEDL, Warner Chappell,... Pantera- Fucking Hostile sticker (st270) (Stickers). 5 x 5.125.Listen to Fucking Hostile on Spotify. Pantera · Song · 1992. Pantera · Song · 1992. Listen to Fucking Hostile on Spotify. Pantera · Song · 1992. ... Listen to Fucking Hostile - Live on Spotify. Pantera · Song · 2018. ... Pantera · Song · 2018. Listen to Fucking Hostile - Live on Spotify. Pantera · Song · 2018. Home; Search; Your Library. Create your first playlist It's easy, we'll help you. Create playlist. Let's find some podcasts to follow We'll keep you updated on new episodes.Pantera - Fucking Hostile Tab Subscribe to Plus! Uninterrupted sync with official audio. Track: Dimebag Darrell (Extra) - Distortion Guitar. Difficulty (Rhythm): Revised on: 10/19/2023 Fucking Hostile Tab by Pantera - Dimebag Darrell (Extra) - …7,5cm x 10cm. PANTERA - FUCKING HOSTILE. Κοινή χρήση. Κοινή χρήση · Tweet · Google+ · Pinterest. 6,00 €. με ΦΠΑ. 7,5cm x 10cm. Ποσότητα. Αγορά.Almost every day I see the same face On broken picture tube It fits the attitude If you could see yourself You put you on a shelf Your verbal masturbate Prom...05. 05-pantera-fucking_hostile-dnr (03:56) 06. 06-pantera-this_love-dnr (06:16) 07. 07-pantera-rise-dnr (04:52) 08. 08-pantera-by_demons_be_driven-dnr (04:16) 09. 09-pantera-hollow-dnr (02:55) 10. 10-pantera-cowboys_from_hell-dnr (04:18) 11. 11-pantera-primal_concrete_sledge-dnr (03:16)ATCO Records (1993) - nice little industrial remix from Justin Broadrick (Godflesh)05. 05-pantera-fucking_hostile-dnr (03:56) 06. 06-pantera-this_love-dnr (06:16) 07. 07-pantera-rise-dnr (04:52) 08. 08-pantera-by_demons_be_driven-dnr (04:16) 09. 09-pantera-hollow-dnr (02:55) 10. 10-pantera-cowboys_from_hell-dnr (04:18) 11. 11-pantera-primal_concrete_sledge-dnr (03:16)25 Jul 2020 ... Re-release. A.k.a. 'Pantera - Fucking Hostile (Kemal & Rob Data Remix)'. All rights to the artists. Uploaded for entertainment purposes only ...Fucking Hostile Lyrics by Pantera from the Vulgar Display of Power [US Release] album- including song video, artist biography, translations and more: Almost every day I see the …2 Jul 2013 ... PHIL ANSELMO & SLAYER Cover PANTERA's "Fucking Hostile". By. Robert ... Pantera classic "Fucking Hostile," a once in a lifetime jam! Want More ...Pantera Fucking Hostile lyrics . 1-2-3-4 Almost every day I see the same face On broken picture tube, It fits the attitude If you could see yourself, You'd put you on a shelf Your verbal masturbate, Promise to nauseate Today I'll play the part of non-parent,PanterA/ Dimebag Darrell Fucking Hostile Live at monsters of rock - festivale in Donington, England 1994You can now buy Dad a Beer to help Support his work on YouTube HERE ️ https://www.buymeacoffee.com/DadRockYTQYou Can Now Watch DadRock Videos On Odysee Ad FR...8 Nov 2008 ... Pantera-Fucking Hostile Live. 15K views · 14 years ago ...more. afrodita palteada. 315. Subscribe. 315 subscribers. 337. Share. Save. Report ...We stand alone Vince! Come meet your maker, boy Some things you can't enjoy Because of heaven, hell A fucking wives tale They put it in your head Then put you in your bed He's watching say your prayers 'Cause God is everywhere Now I'll play a man learning priesthood Who's about to take the ultimate test in life I'd question things because I am ...You can now buy Dad a Beer to help Support his work on YouTube HERE ️ https://www.buymeacoffee.com/DadRockYTQYou Can Now Watch DadRock Videos On Odysee Ad FR...I'd bust the punks That rape steal and murder. And leave you be If you crossed me. I'd shake your hand like a man Not a god. (Chorus) Come meet your maker, boy Some things you can't enjoy. Because ...Pantera fucking hostile

Fucking hostile Come meet your maker, boy Some things you can't enjoy Because of heaven/hell A fucking wives' tale They put it in your head Then put you in your bed He's watching say your prayers Cause God is everywhere Now I'll play a man learning priesthood Who's about to take the ultimate test in life I'd question things because I am human. Pantera fucking hostile

pantera fucking hostile

May 21, 2011 · ATCO Records (1993) - nice little industrial remix from Justin Broadrick (Godflesh) Pantera · Song · 2014. Listen to Fucking Hostile - Live from Donington on Spotify. Pantera · Song · 2014. ...13 Oct 2009 ... Download Fucking Hostile Ringtone to your mobile phone or tablet for free, uploaded by dyrain3. Get Free Ringtones downloads like Fucking ...Pantera - Fucking HostileOriginal Video:https://youtu.be/E929gqIcwwIDonate to the Channel:https://www.paypal.com/cgi-bin/webscr?cmd=_donations&business=QYKFY... Pantera Fucking HostileGuitar Only#Pantera#DimebagDarrel#FuckingHostileAnother Badass live by PanterA, Fucking Hostile Live at San Jose, CA 7 Feb, 1997R.I.P DIMEBAG DARRELL - HEROES NEVER DIES16 Oct 2013 ... PANTERA - Fucking Hostile - drum cover. 114K views · 10 ... Pantera - Fucking Hostile guitar cover - by Kenny Giron (kG) #panteracoversfromhell.Oct 19, 2023 · Fucking Hostile Tab by Pantera. Free online tab player. One accurate version. Recommended by The Wall Street Journal Listen to Fucking Hostile - Live on Spotify. Pantera · Song · 2018. ... Pantera · Song · 2018. Listen to Fucking Hostile - Live on Spotify. Pantera · Song · 2018. Home; Search; Your Library. Create your first playlist It's easy, we'll help you. Create playlist. Let's find some podcasts to follow We'll keep you updated on new episodes.Pantera. $45.00. Pantera. $55.00. Pantera. Provided to YouTube by Atlantic RecordsFucking Hostile · PanteraVulgar Display of Power℗ 1992 Atlantic Recording …Fucking Hostile - YouTube Music. Sign in. New recommendations. 0:00 / 0:00. Provided to YouTube by Atlantic Records Fucking Hostile · Pantera Vulgar Display of Power ℗ 1992 Atlantic Recording Corporation for the United States and ...February 25th, 1992 Atco RecordsPhilip Anselmo VocalsDiamond Darrell (R.I.P. 2004) GuitarsRex BassVinnie Paul (R.I.P. 2018) DrumsTrivia:- The album peaked at... Fucking Hostile Tab by Pantera. 31,699 views, added to favorites 271 times. Rating: ☆ 4.6 / 5 (4); Difficulty: intermediate; Tuning: Eb Ab Db Gb Bb Eb; Author ...Fucking Hostile - guitar tab. Tab for Fucking Hostile song includes parts for classic/accoustic/eletric guitar. Tab contains additional tracks for bass, drums and keyboards. Fucking Hostile - chords and notes for guitar. This website contains notes, guitar riffs or chords, which will help you to learn this Fucking Hostile song.8 Nov 2008 ... Pantera-Fucking Hostile Live. 15K views · 14 years ago ...more. afrodita palteada. 315. Subscribe. 315 subscribers. 337. Share. Save. Report ...Pantera Fucking Hostile Patch Regular price £3.99 Regular price Sale price £3.99 Unit price / per . Pantera Stronger Than All Patch Pantera Stronger Than All Patch Regular price £3.99 Regular price Sale price £3.99 Unit price / per . Pantera Far Beyond Driven World Tour Men's Black T-Shirt ...Pantera Fucking Hostile sheet music notes and chords arranged for Bass Guitar Tab. Rock Free preview. Download printable PDF. SKU 415414.Listen to Fucking Hostile by The Loosest Unit for free. Follow The Loosest ... My latest mix paying tribute to a single band, this time the late, great Pantera.Vulgar Display of Power is the sixth studio album by American heavy metal band Pantera.Released on February 25, 1992, through Atco Records, it was the band's second collaboration with producer Terry Date, after having worked with him on their breakthrough album Cowboys from Hell (1990).. The album was well received by both critics and fans, …Pantera - Respect Lyrics. Can't you see I'm easily I'm bothered by persistence One step from lashing out at you You wanted to get under my skin And call yourself . ... Fucking Hostile: 5. Hollow: 6. Live In A Hole: 7. Live in Hole: 8. Mouth For War: 9. No Good (Attack The Radical) 10. Piss: 11. Regular People (Conceit) 12. Respect: 13. Rise: 14 ...Pantera - Fucking HostileOriginal Video:https://youtu.be/E929gqIcwwIDonate to the Channel:https://www.paypal.com/cgi-bin/webscr?cmd=_donations&business=QYKFY...05 - Fucking Hostile! 06 - Becoming 07 - Sand Blasted Skin 08 - Hard Lines And Sunken Cheeks 09 - Santiago Chant 10 - Crowd Game 11 - Beer Toss 12 - Primal Concrete Sledge 13 - I'm Broken 14 - Suicide Note Pt. 2 15 - War Nerve 16 - This Love 17 - Domination / Hollow 18 - Mouth For War 19 - Planet Caravan 20 - Cowboys From HellDecember 14, 2022. The song "Fucking Hostile" by Pantera focuses on the idea that a person should make their own decisions and choose their own course of action regardless of any pressure from the church, government, or parental figures. The song speaks out against oppressive laws and regulations, and how some people may feel like they have to ...Oct 19, 2023 · Fucking Hostile Tab by Pantera. Free online tab player. One accurate version. Recommended by The Wall Street Journal 17 Jul 2008 ... ... Dimebag Darrell The good old times.... PANTERA live PHIL AND DIME singin Fucking Hostile 1995. 21K views · 15 years ago ...more. LaserGadgets.Listen to Fucking Hostile - Live from Donington on Spotify. ... Pantera · Song · 2014. Pantera · Song · 2014. Listen to Fucking Hostile - Live from Donington on Spotify. Pantera · Song · 2014. Sign up Log in. Home; Search; Your Library. Create your first playlist It's easy, we'll ...I do not own any rights to this song.Album: Vulgar Display of Power (1992)Explore the tracklist, credits, statistics, and more for Fucking Hostile by Pantera. Compare versions and buy on DiscogsYou can now buy Dad a Beer to help Support his work on YouTube HERE ️ https://www.buymeacoffee.com/DadRockYTQYou Can Now Watch DadRock Videos On Odysee Ad FR...Fucking Hostile Lyrics: One, two, three, four / Almost every day, I see the same face / On broken picture tube, it fits the attitude / If you could see yourself, you put you on a shelf / Your... 24 Feb 2015 ... Pantera - "Fucking Hostile" - (Drum Cover by Pelle). 1.7K views · 8 years ago ...more. Frank Pellegrino. 11K. Subscribe. 11K subscribers.The song 'Fucking Hostile' by Pantera has a tempo of 186 beats per minute (BPM) on 'Vulgar Display of Power'.Jun 11, 2016 · Lyrics:Almost every dayI see the same faceOn broken picture tubeIt fits the attitudeIf you could see yourselfYou put you on a shelfYour verbal masturbateProm... Mar 30, 2021 · Song: Fucking HostileBand: PanteraAlbum: Vulgar Display of PowerGenre: Groove MetalYear: 1992Country: USALineup:Dimebag Darrell (RIP. 2004) - GuitarsPhil Ans... So what—to use one of the new album’s song titles—makes Anselmo so “Fucking Hostile”? “There’s a lot of things that make him angry,” explains Paul, “but he’s not necessarily writing anger in a negative fashion. He’s angry and he’s expressing a viewpoint, but it’s also an anger that turns positive, you know what I’m ...Pantera · Song · 2014. Listen to Fucking Hostile - Live from Donington on Spotify. Pantera · Song · 2014. ...Fucking Hostile - guitar tab. Tab for Fucking Hostile song includes parts for classic/accoustic/eletric guitar. Tab contains additional tracks for bass, drums and keyboards. Fucking Hostile - chords and notes for guitar. This website contains notes, guitar riffs or chords, which will help you to learn this Fucking Hostile song.Dec 2, 2022 · About Press Copyright Contact us Creators Advertise Developers Terms Privacy Policy & Safety How YouTube works Test new features NFL Sunday Ticket Press Copyright ... Let's review the charts and indicators....JBLU Employees of TheStreet are prohibited from trading individual securities. Let's look at what separates great trading from bad. These regional banks offer above-average yields and reliable d...Listen to Fucking Hostile - Biomechanical Mix on Spotify. ... Pantera · Song · 1993. Pantera · Song · 1993. Listen to Fucking Hostile - Biomechanical Mix on Spotify. Pantera · Song · 1993. Sign up Log in. Home; Search; Your …Nov 16, 2018 · You can buy my albums or singles here:DIRECT FROM ME (LOSSLESS) http://bit.ly/2usJ3lqITUNES http://apple.co/1Lni4PRAMAZON http://amzn.to/1U2rqUaGOOGLE ... View credits, reviews, tracks and shop for the 1992 Vinyl release of "Fucking Hostile" on Discogs.FILE "Pantera - Vulgar Display Of Power (7567-91758-2).flac" WAVE TRACK 01 AUDIO TITLE "Mouth For War" PERFORMER "Pantera" INDEX 01 00:00:00 TRACK 02 AUDIO TITLE "A New Level" PERFORMER "Pantera" INDEX 01 03:57:17 TRACK 03 AUDIO TITLE "Walk" PERFORMER "Pantera" INDEX 01 07:54:52 TRACK 04 AUDIO TITLE "Fucking …Fucking hostile! We stand alone The truth in right and wrong The boundaries of the law You seem to miss the point Arresting for a joint? You seem to wonder why Hundreds of people die You're writing tickets man My mom got jumped, they ran! Now I'll play a public servant To serve and protect by the law and the state I'd bust the punks that rape ...Fucking Hostile (Biomechanical Mix) Lyrics. 3. By Demons ... More Pantera albums Live At Dynamo Open Air 1998. The Best of Pantera: Far Beyond the Great Southern Cowboys’ Vulgar Hits!May 21, 2011 · ATCO Records (1993) - nice little industrial remix from Justin Broadrick (Godflesh) Fucking Hostile / Mouth for War, a Single by Pantera. Released in 1992 on EastWest (catalog no. SAM 951; Vinyl 12"). Genres: Thrash Metal, Groove Metal.Pantera Fucking HostileGuitar Only#Pantera#DimebagDarrel#FuckingHostileOct 19, 2023 · Fucking Hostile Tab by Pantera. Free online tab player. One accurate version. Recommended by The Wall Street Journal Ahí me di la paja de subtitular la canción lo más decente posible.....ya que no encontre ninguna definición convincente a la frase "IT FITS THE ATTITUDE" la...Shop exclusive merch and apparel from the Official Pantera Store. Hoodies, tees, accessories, and more. Order official Pantera merchandise now! Search for products on our site Close Search Menu ... Hostile Holiday Sweater. $75.00. Pantera Bomber Jacket. $150.00. Holiday Ornament. $20.00. Cowboys From Hell Puzzle. $35.00. CFH Gloves. …Shop Pantera Fucking Hostile Iron On Patch. One of many items available from our Appliques & Patches department here at Fruugo!Pantera - Fucking Hostile (EN ESPAÑOL) (Letra y canción para escuchar) - Almost every day / I see the same face / On broken picture tube / It fits the attitude / If you could see …Fucking Hostile - YouTube Music. Sign in. New recommendations. 0:00 / 0:00. Provided to YouTube by Atlantic Records Fucking Hostile · Pantera Vulgar Display of Power ℗ 1992 Atlantic Recording Corporation for the United States and ...Listen to Fucking Hostile - Live on Spotify. Pantera · Song · 2018. ... Pantera · Song · 2018. Listen to Fucking Hostile - Live on Spotify. Pantera · Song · 2018. Home; Search; Your Library. Create your first playlist It's easy, we'll help you. Create playlist. Let's find some podcasts to follow We'll keep you updated on new episodes.The latter group added a new chapter — or maybe more of a really awesome footnote — to that relationship recently. To celebrate Phil Anselmo' s 45th birthday, Slayer invited the singer onstage during the band's Heavy by the Sea Festival set in Athens, Greece, to cover Pantera's classic "Fucking Hostile," the face-smashing mission …Now I'll play a public servant To serve and protect by the law and the state I′d bust the punks that rape, steal and murder And leave you be if you crossed me, I′d shake your hand like a man Not a god To see To bleed Cannot be taught In turn, you're making us Fucking hostile! We stand alone Vince! Come meet your maker, boy Some things you ...Pantera released and sold their early albums themselves – with sales eventually reaching the 1000 mark – but times were changing. ... There’s little to say about Fucking Hostile not relayed by the song’s title, and even when they drop the tempo, on the likes of Hollow and This Love, there’s an almost insidious heaviness to the band ...Pantera Fucking Hostile Almost every day I see the same face On broken picture tube It fits the attitude If you could see yourself You put you on a shelf Your verbal masturbate Promise to nauseate Today I'll play the part of non-parent Not make a hundred rules For you to know about yourself Not lie and make you believe What's evil is making lovePantera - Respect Lyrics. Can't you see I'm easily I'm bothered by persistence One step from lashing out at you You wanted to get under my skin And call yourself . ... Fucking Hostile: 5. Hollow: 6. Live In A Hole: 7. Live in Hole: 8. Mouth For War: 9. No Good (Attack The Radical) 10. Piss: 11. Regular People (Conceit) 12. Respect: 13. Rise: 14 ...[Chorus] Hold your mouth for the war Use it for what it's for Speak the truth about me Determined [Solo] [Bridge] There comes a time within everyone To close your eyes to what's real [Outro] No ...Pantera Lyrics. "Fucking Hostile". One, two, three, four. Almost every day, I see the same face. On broken picture tube, it fits the attitude. If you could see yourself, you put you on …Now I'll play a public servant To serve and protect by the law and the state I'd bust the punks that rape, steal and murder And leave you be if you crossed me, I'd shake your hand like a man Not a god To see To bleed Cannot be taught In turn, you're making us Fucking hostile! We stand alone Vince!05. 05-pantera-fucking_hostile-dnr (03:56) 06. 06-pantera-this_love-dnr (06:16) 07. 07-pantera-rise-dnr (04:52) 08. 08-pantera-by_demons_be_driven-dnr (04:16) 09. 09-pantera-hollow-dnr (02:55) 10. 10-pantera-cowboys_from_hell-dnr (04:18) 11. 11-pantera-primal_concrete_sledge-dnr (03:16)Fucking Hostile Tab. by Pantera. 92,161 views, added to favorites 528 times. Capo: no capo. Author Unregistered. 1 contributor total, last edit on Dec 24, 2016. View official tab. We have an official Fucking Hostile tab made by UG professional guitarists.Check out the tab ».Video footage of NEW YEARS DAY performing an acoustic cover version of the PANTERA classic "Fucking Hostile" on February 7 at Sony Music Studios in New York City can be seen below.. NEW YEARS DAY ...2-01. Pantera - Mouth For War (03:56) 2-02. Pantera - A New Level (03:57) 2-03. Pantera - Walk (05:15) 2-04. Pantera - Fucking Hostile (02:48) 2-05. Pantera - This Love (06:32) 2-06. Pantera - Rise (04:38) 2-07. Pantera - No Good (Attack The Radical) [Explicit] (04:48) 2-08. Pantera - Live In A Hole (05:00) 2-09. Pantera - Regular People ...In their performance of “5 Minutes Alone,” Robert and Toyah pay homage to Pantera with a worthy cover of the standout track from 1994’s Far Beyond Driven. Robert, of course, is best known as the founding guitarist of prog legends King Crimson , but he gets his metal on while shredding Dimebag’s famous riffs.Lyrics:Almost every dayI see the same faceOn broken picture tubeIt fits the attitudeIf you could see yourselfYou put you on a shelfYour verbal masturbateProm.... Xrxceegxrlx onlyfans nude